Convertire video da MPEG a 3gp

12 risposte [Ultimo contenuto]
Ritratto di Anubi_Debian_3
Offline
Geek
Iscritto: 08/01/2011
Messaggi: 100

Come da oggetto, mi servirebbe un programma capace di convertire video mpeg ( Anche altri formati ovviamente ) in 3gp, cioè in formato adatto a smartphone.
Ho provato 3gpwiz, Zamzar.com ( Online ), Mobile Media Converter ed altri, ma nulla. Zamzar.com lo converte, ma in una qualità audio pessima...
C'è un programma che mi possa aiutare ?

Ritratto di rufus
rufus
(Monster)
Offline
Monster
Iscritto: 06/04/2005
Messaggi: 255

Esegui questo comando da shell

ffmpeg -i inputfile.mpg -s qcif -vcodec h263 -acodec aac -ac 1 -ar 8000 -r 25 -ab 32 -y outputfile.3gp

Ciao e poi fammi sapere. Yawn

Ritratto di Anubi_Debian_3
Offline
Geek
Iscritto: 08/01/2011
Messaggi: 100

FFMpeg ? Ho dimenticato di citarlo, me lo converte, ma il mio cellulare (Nokia 5800 XpressMusic ) non supporta l'output. Proverò con i parametri da te citati Wink

EDIT: Non mi funziona l'audio del video convertito.

Ritratto di Piccinini Giancarlo
Offline
Geek
Iscritto: 22/02/2010
Messaggi: 170

rufus ha scritto:

Esegui questo comando da shell

ffmpeg -i inputfile.mpg -s qcif -vcodec h263 -acodec aac -ac 1 -ar 8000 -r 25 -ab 32 -y outputfile.3gp

Ciao e poi fammi sapere. Yawn


io uso interfaccia grafica per ffmpeg http://winff.org/html_new/ molto utile non devi scrivere righe comando
sul loro sito trovi come installare il programma per Debian o Ubuntu

Ritratto di Anubi_Debian_3
Offline
Geek
Iscritto: 08/01/2011
Messaggi: 100

WinFF non converte in 3gp...

Ritratto di mcortese
mcortese
(Moderatore)
Offline
Moderatore
Iscritto: 27/02/2009
Messaggi: 2918

Penso che ffmpeg sia la scelta migliore, devi solo trovare i parametri giusti. Probabilmente il tuo cellulare supporta solo un sottoinsieme del formato 3GP, ad esempio non supporta l'audio in formato AAC. Prova a cambiare il paramentro dopo -acodec con amr_nb.

Ritratto di Anubi_Debian_3
Offline
Geek
Iscritto: 08/01/2011
Messaggi: 100

Ok. Provo e ti aggiorno.
EDIT: Ecco il risultato...

[mpeg @ 0x9e40ca0] max_analyze_duration reached
Input #0, mpeg, from 'tremulous.mpeg':
  Duration: 00:04:43.55, start: 1.000000, bitrate: 5176 kb/s
    Stream #0.0[0x1e0]: Video: mpeg2video, yuv420p, 640x480 [PAR 1:1 DAR 4:3], 104857 kb/s, 29.97 fps, 29.97 tbr, 90k tbn, 59.94 tbc
    Stream #0.1[0x1c0]: Audio: mp2, 44100 Hz, 2 channels, s16, 256 kb/s
WARNING: The bitrate parameter is set too low. It takes bits/s as argument, not kbits/s
Unknown encoder 'amr_nb'

Ritratto di fareyes
fareyes
(Monster)
Offline
Monster
Iscritto: 14/03/2011
Messaggi: 391

Non uso convertire quel formato, però potrebbe esserti utile questo link, magari trovi qualcosa che fa al caso Wink

Ritratto di mcortese
mcortese
(Moderatore)
Offline
Moderatore
Iscritto: 27/02/2009
Messaggi: 2918

Citazione:

Unknown encoder 'amr_nb'


Se ti manca il codec, lo puoi trovare su debian-multimedia?

Ritratto di Anubi_Debian_3
Offline
Geek
Iscritto: 08/01/2011
Messaggi: 100

Debian-multimedia ? o.o
Perdona la mia ignoranza...

Ritratto di marcosan
marcosan
(Collaboratore)
Offline
Collaboratore
Iscritto: 16/05/2005
Messaggi: 896

L'ignoranza e` perdonata, ovviamente...ma la ricerca di semplici informazioni demandata ad altri no! Wink

Vedi qui e qui!

Ciao,
Marco

"La matematica e' l'arte di dare lo stesso nome a cose diverse."
H.Poincare (1854-1912).